<?xml version="1.0" standalone="no"?>
<!DOCTYPE svg PUBLIC "-//W3C//DTD SVG 1.1//EN" "http://www.w3.org/Graphics/SVG/1.1/DTD/svg11.dtd" >
<svg xmlns="http://www.w3.org/2000/svg">
<metadata>
Created by FontForge 20120731 at Fri Sep  5 09:30:44 2014
 By Ads
</metadata>
<defs>
<font id="iconfont" horiz-adv-x="1000" >
  <font-face 
    font-family="iconfont"
    font-weight="500"
    font-stretch="normal"
    units-per-em="1024"
    panose-1="2 0 6 3 0 0 0 0 0 0"
    ascent="812"
    descent="-212"
    x-height="792"
    bbox="-7.92 -248.276 1024.14 812"
    underline-thickness="50"
    underline-position="-100"
    unicode-range="U+0078-E61D"
  />
<missing-glyph horiz-adv-x="374" 
d="M34 0v682h272v-682h-272zM68 34h204v614h-204v-614z" />
    <glyph glyph-name=".notdef" horiz-adv-x="374" 
d="M34 0v682h272v-682h-272zM68 34h204v614h-204v-614z" />
    <glyph glyph-name=".null" horiz-adv-x="0" 
 />
    <glyph glyph-name="nonmarkingreturn" horiz-adv-x="341" 
 />
    <glyph glyph-name="x" unicode="x" horiz-adv-x="1001" 
d="M281 543q-27 -1 -53 -1h-83q-18 0 -36.5 -6t-32.5 -18.5t-23 -32t-9 -45.5v-76h912v41q0 16 -0.5 30t-0.5 18q0 13 -5 29t-17 29.5t-31.5 22.5t-49.5 9h-133v-97h-438v97zM955 310v-52q0 -23 0.5 -52t0.5 -58t-10.5 -47.5t-26 -30t-33 -16t-31.5 -4.5q-14 -1 -29.5 -0.5
t-29.5 0.5h-32l-45 128h-439l-44 -128h-29h-34q-20 0 -45 1q-25 0 -41 9.5t-25.5 23t-13.5 29.5t-4 30v167h911zM163 247q-12 0 -21 -8.5t-9 -21.5t9 -21.5t21 -8.5q13 0 22 8.5t9 21.5t-9 21.5t-22 8.5zM316 123q-8 -26 -14 -48q-5 -19 -10.5 -37t-7.5 -25t-3 -15t1 -14.5
t9.5 -10.5t21.5 -4h37h67h81h80h64h36q23 0 34 12t2 38q-5 13 -9.5 30.5t-9.5 34.5q-5 19 -11 39h-368zM336 498v228q0 11 2.5 23t10 21.5t20.5 15.5t34 6h188q31 0 51.5 -14.5t20.5 -52.5v-227h-327z" />
    <glyph glyph-name="uniE600" unicode="&#xe600;" 
d="M827 -74q-12 -9 -28 -9q-20 0 -34.5 14.5t-14.5 34.5q0 22 17 37q1 1 2 1.5t2 1.5l1 1q28 19 52 45t42 56.5t28 65t10 71.5q0 75 -38 137t-95 102q-21 15 -21 40q0 20 14.5 34.5t34.5 14.5q17 0 30 -11q37 -26 69 -60.5t55 -75t36 -86.5t13 -95q0 -50 -13 -96t-36.5 -87
t-55.5 -75.5t-70 -60.5zM771 375q21 -29 33.5 -58.5t12.5 -71.5q0 -40 -13 -72t-33 -58q-8 -11 -17 -19.5t-23 -8.5q-18 0 -30.5 13t-12.5 31q0 8 3 16h-1q5 11 12 21t13.5 20.5t11 24t4.5 32.5q0 18 -4.5 31.5t-11 24.5t-13.5 21t-11 21q-3 7 -3 16q0 18 12.5 31t30.5 13
q14 0 23 -8.5t17 -19.5zM448 -219q-51 46 -108 96t-106 92q-57 48 -114 95q-11 -1 -22 -1q-9 -1 -19 -1h-17q-27 0 -44 16.5t-17 39.5v252h1l-1 1q0 28 17.5 46t43.5 18h57q92 78 167 140q32 27 63 52.5t56 46.5t42 35t21 17q30 22 48.5 20t29 -18t14.5 -39t4 -42v-807v-3
q0 -19 -7 -40.5t-21.5 -34t-36.5 -10.5t-51 29z" />
    <glyph glyph-name="uniE601" unicode="&#xe601;" 
d="M35 172q-32 34 -36 62t24 57q4 4 13 12t19 16.5t19 16.5t13 12q26 23 51 19.5t43 -23.5q10 -11 26.5 -27.5t33.5 -34.5t33 -34t25 -26q20 -20 46.5 -15.5t49.5 27.5q22 22 53.5 55t68.5 71.5t77 80.5t78 81.5t72 74.5t60 61q14 14 28.5 26t29.5 18.5t30.5 5.5t31.5 -11
q2 -2 11.5 -10.5t20.5 -18.5l20 -20l11 -12q14 -14 15 -29.5t-5 -31t-16.5 -29.5t-20.5 -24q-31 -31 -77 -77.5t-98 -100t-108 -110.5t-107.5 -110t-96 -98.5t-74.5 -74.5q-12 -12 -30.5 -18.5t-38.5 -7t-39.5 4.5t-32.5 17q-27 24 -57.5 54t-60.5 61t-57 59.5t-48 50.5z
" />
    <glyph glyph-name="uniE602" unicode="&#xe602;" 
d="M866 71q29 -30 42.5 -55t-4.5 -57q-4 -6 -11 -14.5t-14.5 -16.5t-15 -14.5t-12.5 -9.5q-25 -15 -59 -8t-61 34l-42 42l-56 56l-66 66l-72 72l-128 -128q-59 -59 -96 -97q-38 -38 -75.5 -47t-66.5 17l-7 7l-11 11l-11 11q-6 6 -7 8q-11 14 -13 28.5t2.5 28.5t13.5 27
t20 24q9 8 32 30l54 56q33 32 73.5 72t84.5 84q-48 48 -91.5 91t-78 77t-56.5 55.5t-27 26.5q-26 26 -26.5 51.5t17.5 51.5q8 10 23 23.5t21 17.5q30 20 54 17.5t48 -27.5l31 -31q23 -23 57 -56t76.5 -74.5t88.5 -86.5q38 38 74.5 74t68 67.5t57 56.5t42.5 42q24 23 52 30.5
t54 -12.5q1 -1 6.5 -5t11 -9t10.5 -9.5t7 -5.5q27 -26 26.5 -56.5t-26.5 -56.5q-18 -18 -44.5 -45t-59 -59t-68.5 -68l-76 -76q37 -36 72.5 -70.5t66 -64.5t55 -55t40.5 -41z" />
    <glyph glyph-name="uniE603" unicode="&#xe603;" 
d="M589 686q3 -5 20.5 -34.5t44 -74.5t59.5 -102t68 -116.5t69.5 -118t63 -107.5t49 -84t28.5 -48q15 -25 18.5 -50t-3 -45t-23 -32.5t-40.5 -11.5q-12 0 -51 0.5t-94 0.5h-125h-141q-72 0 -143 -0.5t-132 -0.5h-107h-68q-38 0 -58.5 13t-27.5 33.5t-1.5 44.5t19.5 45
q7 11 27.5 45t49.5 82.5t64 107t71 119t70 117.5t61 103t45 76l21 35q14 22 36.5 33.5t46.5 11.5t46.5 -10.5t36.5 -31.5zM564 490q0 12 -5.5 22.5t-14.5 19t-20.5 13.5t-23.5 5q-23 0 -42.5 -18t-19.5 -41v-262q0 -23 19.5 -41.5t42.5 -18.5q24 0 44 17.5t20 40.5v263z
M500 110q-26 0 -44.5 -18t-18.5 -44t18.5 -44.5t44.5 -18.5t44 18.5t18 44.5t-18 44t-44 18z" />
    <glyph glyph-name="uniE604" unicode="&#xe604;" 
d="M501 770q97 0 183 -37t150 -101.5t101 -150.5t37 -183q0 -98 -37 -184t-101 -150t-150 -101t-183 -37q-98 0 -184 37t-150 101t-101 150t-37 184q0 97 37 183t101 150.5t150 101.5t184 37zM531 -53q28 0 47.5 19.5t19.5 47.5q0 29 -19.5 48.5t-47.5 19.5
q-29 0 -48.5 -19.5t-19.5 -48.5q0 -28 19.5 -47.5t48.5 -19.5zM595 219q0 13 18.5 31t41 44.5t41.5 62t19 83.5q0 32 -12.5 67t-39.5 64t-69.5 48t-102.5 19q-70 0 -111.5 -24.5t-63 -59.5t-28 -72.5t-6.5 -63.5q0 -24 20 -34t43.5 -8.5t43.5 14t20 33.5q0 13 1.5 29
t10 30.5t25.5 24t47 9.5q47 0 74.5 -26t27.5 -61q0 -29 -19.5 -56t-42.5 -49.5t-42.5 -40t-19.5 -27.5v-73q0 -9 19.5 -13.5t42.5 -4t42.5 5.5t19.5 16v32z" />
    <glyph glyph-name="uniE605" unicode="&#xe605;" 
d="M376 424h-126v147q0 48 19 89.5t52.5 73t79 49.5t99.5 18q48 0 92.5 -18t79 -49.5t55 -73t20.5 -89.5v-147h-121v119q0 63 -35 97.5t-95 34.5q-54 0 -87 -34.5t-33 -97.5v-119zM807 364q27 0 46.5 -19.5t19.5 -46.5v-310q0 -27 -9.5 -50.5t-26 -41t-39 -27.5t-49.5 -10
h-505q-27 0 -49 10t-37.5 26.5t-24 38.5t-8.5 47v317q0 27 19 46.5t46 19.5h60h126h250h121h60z" />
    <glyph glyph-name="uniE606" unicode="&#xe606;" 
d="M190 423q31 0 45.5 -19t14.5 -42v-437h-188v433q0 31 19.5 48t42.5 17h66zM502 669q27 0 43 -16.5t16 -39.5v-688h-187v686q0 15 6 26t15 18t20 10.5t20 3.5h67zM813 236q9 0 19.5 -5t20 -14t16 -20.5t6.5 -24.5v-247h-187v245q0 11 4.5 23t12.5 21.5t19 15.5t24 6h65z
" />
    <glyph glyph-name="uniE607" unicode="&#xe607;" 
d="M411 360l-161 -136v182l181 159l5 -6l164 -191l301 313l90 -110l-404 -421l-3 7zM907 111q19 0 36.5 -7.5t30 -20t20 -29.5t7.5 -36q0 -20 -7.5 -37t-20 -29.5t-30 -20t-36.5 -7.5h-813q-20 0 -37 7.5t-29.5 20t-20 29.5t-7.5 37v625q0 19 7.5 36.5t20 30t29.5 20t37 7.5
q19 0 36.5 -7.5t30 -20t20 -30t7.5 -36.5v-532h719z" />
    <glyph glyph-name="uniE608" unicode="&#xe608;" 
d="M551 757q42 0 57 -20t15 -64q0 -20 0.5 -63t0.5 -91.5t0.5 -94.5t0.5 -73q0 -38 7.5 -60.5t34.5 -21.5q19 0 47 -1t48 -1q35 0 44.5 -18.5t-13.5 -48.5q-24 -30 -56 -71t-66.5 -84t-67.5 -84.5t-58 -73.5q-23 -29 -44.5 -30t-44.5 27q-24 29 -56 68t-65.5 80.5t-66 82
t-58.5 72.5q-29 35 -22 57.5t43 22.5h24q14 0 29 0.5t29.5 1.5t25.5 1q26 0 32 15t6 41q0 29 -0.5 76t-0.5 98t-0.5 99t-0.5 78q0 13 2 27t9.5 25.5t20.5 19t36 7.5q27 0 52 0.5t56 0.5z" />
    <glyph glyph-name="uniE609" unicode="&#xe609;" 
d="M944 246q0 -42 -20 -57t-64 -15h-63q-43 0 -91.5 -0.5t-94.5 -0.5h-73q-38 0 -60.5 -7.5t-21.5 -34.5q0 -20 -1 -47.5t-1 -48.5q0 -35 -19 -44.5t-49 13.5q-30 24 -71 56.5t-83.5 66.5t-84 67t-73.5 58q-30 24 -30.5 45.5t27.5 44.5q28 24 67 55.5t81 65t82.5 66.5
t72.5 59q35 28 57.5 21.5t22.5 -42.5v-25q0 -14 0.5 -29t1 -29.5t0.5 -25.5q1 -25 16 -31.5t41 -6.5q29 0 76 0.5t98 0.5t99 0.5t78 0.5q13 0 27 -2t25.5 -9.5t19 -21t7.5 -35.5q0 -27 0.5 -52t0.5 -56z" />
    <glyph glyph-name="uniE60A" unicode="&#xe60a;" 
d="M459 -154q-43 0 -58 20t-15 64q0 20 -0.5 63t-1 91.5t-1.5 94.5t-1 73q0 39 -7.5 61t-34.5 21q-20 0 -47.5 1t-48.5 0q-35 0 -44.5 19t13.5 49q24 30 56 71t66 84t66.5 85t57.5 74q23 29 44.5 30t45.5 -26q24 -29 55.5 -68t65.5 -80.5t67 -82t59 -71.5q29 -35 22.5 -57.5
t-42.5 -22.5q-11 0 -24.5 -0.5t-28.5 -1t-29.5 -1t-26.5 -0.5q-25 -1 -31.5 -16t-5.5 -41q0 -29 0.5 -76t1 -98t1.5 -99t1 -78q0 -13 -2 -27t-9.5 -25.5t-21 -19.5t-35.5 -8q-27 0 -51.5 -0.5t-55.5 -1.5z" />
    <glyph glyph-name="uniE60B" unicode="&#xe60b;" 
d="M46 357q0 42 20.5 56.5t64.5 14.5q20 0 63 -0.5t91.5 -0.5t94.5 -0.5t73 -0.5q38 -1 60 6.5t22 34.5q0 20 1.5 47.5t1.5 47.5q1 35 20 44.5t48 -14.5q30 -24 70 -57t83 -67.5t84 -68t73 -58.5q29 -24 29.5 -45.5t-27.5 -44.5q-29 -24 -68.5 -55t-82 -64t-83.5 -65.5
t-73 -57.5q-35 -28 -57.5 -21t-21.5 43v24v29q0 15 -0.5 29.5t-0.5 26.5q0 25 -15 31.5t-41 6.5q-29 0 -76 0.5t-98 0.5t-99 0.5t-78 0.5q-13 0 -27 2.5t-25.5 9.5t-18.5 20.5t-7 36.5q0 27 -0.5 52t0.5 56z" />
    <glyph glyph-name="uniE60C" unicode="&#xe60c;" 
d="M980 317q21 -20 22 -44t-16 -40q-19 -17 -44 -16t-40 14q-5 4 -30.5 28t-61 57.5t-76 72t-76.5 72.5t-62 59t-33 31q-32 29 -63 28t-61 -28q-10 -9 -37.5 -34.5t-63.5 -59.5t-76 -71t-74 -69t-58.5 -54.5t-29.5 -26.5q-15 -12 -40 -13t-43 15q-20 18 -19 43.5t17 40.5
q6 6 37 35t74 69t92.5 86t92 86t73 68.5t35.5 33.5q38 37 82 37.5t75 -29.5q6 -5 25 -23.5t46.5 -45t61.5 -59.5t69 -66.5t68.5 -66.5t61.5 -59.5t47 -45.5zM439 462q25 23 60 24.5t63 -24.5q3 -3 18 -17l38 -35q22 -21 49.5 -47t56.5 -52q67 -62 150 -139v-190
q0 -22 -16.5 -39t-44.5 -18h-189v155q0 33 -31 33h-191q-17 0 -23.5 -10t-6.5 -23q0 -6 -0.5 -30.5t-0.5 -52.5v-72h-183q-29 0 -46 13t-17 37v199q82 75 149 136q28 26 56 51.5t51 46.5t38.5 35.5t19.5 18.5z" />
    <glyph glyph-name="uniE60D" unicode="&#xe60d;" 
d="M529 800q29 0 57.5 -6.5t53.5 -17.5t44.5 -25t30.5 -28q26 -32 38 -70.5t17 -73.5q5 -40 5 -81q7 -5 11 -13q4 -7 6.5 -18t0.5 -27q-2 -21 -8.5 -33.5t-14.5 -19.5q-9 -8 -19 -11q-5 -17 -10 -32q-5 -13 -11.5 -25.5t-14.5 -19.5q-19 -15 -31 -25.5t-16 -35.5
q-3 -15 -2 -30.5t8.5 -31t23 -29.5t43.5 -25q25 -10 54.5 -18t57.5 -18.5t49.5 -26t30.5 -42.5q5 -16 7.5 -39.5t2.5 -47.5t-3.5 -45t-10.5 -32q-5 -7 -28.5 -14t-58 -13.5t-77 -11.5t-85.5 -8.5t-82.5 -5.5t-68.5 -2t-67.5 2t-79.5 5.5t-81.5 8t-73.5 9.5t-56 10t-29 10
q-10 8 -15.5 49t4.5 106q5 37 29.5 56.5t57 31t67.5 20.5t62 26q21 13 32 25t16 24t5 25t-1 29q-2 23 -16 36.5t-31 27.5q-8 7 -14 19.5t-11 25.5q-5 15 -10 32q-7 2 -14 7q-6 5 -13 14t-12 26q-6 17 -4.5 31t5.5 24q4 11 13 21q-1 38 4 76q4 32 14.5 69t31.5 66
q19 28 42.5 45.5t48 27.5t49 13.5t47.5 3.5z" />
    <glyph glyph-name="uniE60E" unicode="&#xe60e;" 
d="M993 208q2 -12 -1 -29t-10 -34.5t-17 -31.5t-22 -20t-21 -6t-20 4q-10 3 -25 5.5t-30.5 1t-31 -6.5t-26.5 -17q-24 -25 -28 -57t9 -61q10 -20 -3 -40q-6 -8 -19 -16.5t-28.5 -15.5t-32.5 -11t-30 -4q-9 0 -17 7t-11 15h-1q-11 31 -37.5 53.5t-61.5 22.5
q-34 0 -61.5 -22.5t-38.5 -52.5q-5 -12 -15 -17.5t-22 -5.5q-14 0 -31.5 5t-35 12.5t-31.5 17.5t-21 20q-5 7 -5.5 16.5t7.5 26.5q11 23 8.5 52.5t-25.5 54.5q-14 15 -34 19.5t-38 3.5q-21 -1 -43 -8q-14 -4 -28 2q-11 4 -20.5 18.5t-17 32t-11.5 36t-2 30.5q3 22 20 28
q30 12 54 39.5t24 61.5q0 35 -24 61t-54 38q-9 3 -15 14.5t-6 23.5q0 13 4 29t10.5 31t15 27.5t18.5 18.5q8 5 15.5 4t16.5 -4q30 -12 62.5 -7.5t57.5 28.5q12 12 17.5 29.5t7 34.5t0 31t-2.5 20q-2 6 -3.5 14t1.5 14q6 14 21.5 24.5t33.5 17.5t35 10.5t27 3.5
q13 0 20.5 -8.5t10.5 -17.5q11 -27 36 -47.5t59 -20.5q35 0 62 19.5t38 49.5q4 8 12.5 16.5t17.5 8.5q14 0 30.5 -4t32.5 -11t29.5 -18t21.5 -24q5 -8 3 -17.5t-4 -13.5q-13 -29 -8 -61t29 -56t59 -26.5t65 11.5q8 5 19.5 4t19.5 -9q15 -14 26.5 -42.5t15.5 -57.5
q2 -17 -5.5 -26.5t-15.5 -12.5q-31 -11 -53 -38.5t-22 -62.5q0 -34 18.5 -59.5t48.5 -36.5q7 -4 12 -8q11 -9 15 -23zM528 118q45 0 85 17t69.5 47t46.5 69.5t17 84.5t-17 84.5t-46.5 69t-69.5 46.5t-85 17t-84.5 -17t-69 -46.5t-46.5 -69t-17 -84.5t17 -84.5t46.5 -69.5
t69 -47t84.5 -17z" />
    <glyph glyph-name="uniE60F" unicode="&#xe60f;" 
d="M841 612q30 0 49.5 -10t31 -25t16 -32.5t4.5 -32.5q0 -7 -0.5 -11t-0.5 -7v-6h-66v-525q0 -20 -8 -38.5t-23 -32.5t-36.5 -22.5t-49.5 -8.5h-446q-26 0 -49 8t-39.5 22.5t-26 35t-9.5 46.5v515h-62q-1 1 -1 5q-1 5 -1 31q0 13 6 29t18 29.5t31 22.5t45 9h89v61
q0 26 18 44.5t44 18.5h313q35 0 48.5 -18.5t13.5 -44.5v-62q21 -1 45 -1h46zM375 612h313v63h-313v-63zM344 -21q32 0 32 41v464h-62v-464q0 -21 6.5 -31t23.5 -10zM533 -20q17 0 23 9.5t6 30.5v464h-62v-464q0 -40 33 -40zM721 -18q18 0 24 9.5t6 30.5v462h-63v-462
q0 -40 33 -40z" />
    <glyph glyph-name="uniE610" unicode="&#xe610;" 
d="M995 691q4 -9 6.5 -21t2.5 -25t-5 -26t-16 -25q-12 -12 -21.5 -21t-16.5 -16q-8 -8 -15 -14l-187 187q12 11 28.5 26.5t27.5 24.5q14 11 29 15.5t29.5 4t28 -4.5t23.5 -9q21 -11 46.5 -38.5t39.5 -57.5zM216 203q6 6 28 28.5t55 55.5l73 73l81 81l215 215l187 -188
l-215 -215l-80 -81q-40 -39 -72 -71.5t-53 -53.5t-25 -24q-10 -9 -23 -19t-27 -16q-14 -7 -41 -17t-56.5 -19.5t-56 -16.5t-39.5 -9q-27 -3 -36 8t-5 37q2 14 9.5 40.5t16 55t16.5 52.5t13 33q6 14 13.5 25.5t21.5 25.5z" />
    <glyph glyph-name="uniE611" unicode="&#xe611;" 
d="M437 53h-193q-27 2 -41.5 22.5t-17.5 45.5q3 25 17.5 41t41.5 18h193v63l-193 1q-27 2 -41.5 19t-17.5 43q3 25 17.5 41t41.5 18h144l-134 236q-10 12 -19 30.5t-8 40.5q5 28 20 45.5t56 22.5q24 -2 43 -16.5t31 -31.5l152 -278l167 280q12 17 31 30t43 16q15 -1 27.5 -4
t22 -10t16 -20t9.5 -34q0 -29 -20 -55l-155 -252h147q26 -2 41 -18t17 -41q-2 -26 -17.5 -44t-41.5 -20l-191 -1v-61h192q26 -2 41 -20t17 -43q-2 -26 -17 -43.5t-41 -19.5l-192 1v-106q-4 -85 -93 -85q-44 0 -68.5 21t-26.5 64v104z" />
    <glyph glyph-name="uniE612" unicode="&#xe617;" 
d="M502 739q91 0 171.5 -34.5t140.5 -94.5t94.5 -140.5t34.5 -171.5q0 -92 -34.5 -172t-94.5 -140t-140.5 -94.5t-171.5 -34.5q-92 0 -172.5 34.5t-140.5 94.5t-94.5 140t-34.5 172q0 91 34.5 171.5t94.5 140.5t140.5 94.5t172.5 34.5zM754 237q26 0 44 18.5t18 44.5t-18 44
t-44 18h-188v188q0 26 -18.5 44.5t-44.5 18.5t-44 -18.5t-18 -44.5v-188h-188q-26 0 -44 -18t-18 -44t18 -44.5t44 -18.5h188v-187q0 -26 18 -44.5t44 -18.5t44.5 18.5t18.5 44.5v187h188z" />
    <glyph glyph-name="uniE613" unicode="&#xe613;" 
d="M808 609q64 -64 95.5 -144t31.5 -164t-31.5 -164t-95.5 -144t-144 -96t-164 -32t-164.5 32t-144.5 96t-96 144t-32 164t32 164t96 144t144.5 95.5t164.5 31.5t164 -31.5t144 -95.5zM704 101q21 21 18.5 48t-23.5 48l-105 105l105 105q21 21 23.5 48t-18.5 48t-50.5 21
t-50.5 -21l-105 -104l-102 102q-21 20 -48 22.5t-48 -17.5q-21 -21 -21 -51t21 -51l102 -102l-102 -102q-21 -21 -21 -50.5t21 -50.5t48 -18.5t48 23.5l102 102l105 -105q21 -21 50.5 -21t50.5 21z" />
    <glyph glyph-name="uniE614" unicode="&#xe618;" 
d="M502 742q91 0 170.5 -34.5t139 -94.5t94 -140t34.5 -171t-34.5 -171.5t-94 -140.5t-139 -94.5t-170.5 -34.5t-171 34.5t-139.5 94.5t-94 140.5t-34.5 171.5t34.5 171t94 140t139.5 94.5t171 34.5zM777 386q18 18 19 44.5t-17 44.5t-44 17.5t-44 -18.5l-282 -282l-97 96
q-18 18 -44 18.5t-44 -17.5t-18.5 -42.5t17.5 -42.5l139 -140q18 -18 47 -17.5t47 18.5l-4 -4z" />
    <glyph glyph-name="uniE615" unicode="&#xe615;" 
d="M328 28q19 0 36 -7t29.5 -19.5t20 -29.5t7.5 -36t-7.5 -36t-20 -29.5t-29.5 -20t-36 -7.5q-20 0 -37 7.5t-29.5 20t-20 29.5t-7.5 36t7.5 36t20 29.5t29.5 19.5t37 7zM744 26q19 0 36.5 -7t30 -19.5t20 -29.5t7.5 -36t-7.5 -36t-20 -29.5t-30 -20t-36.5 -7.5t-36 7.5
t-29.5 20t-20 29.5t-7.5 36t7.5 36t20 29.5t29.5 19.5t36 7zM912 594q28 0 43.5 -7.5t22 -18.5t6 -23.5t-3.5 -21.5t-13 -37t-21.5 -61.5t-23 -66.5t-18.5 -52q-13 -40 -32.5 -55.5t-48.5 -15.5h-35h-64h-84h-94h-248l14 -90h505q48 0 48 -41q0 -20 -9.5 -35t-37.5 -14h-48
h-92h-116h-117h-97h-54q-20 0 -33.5 9t-22.5 23.5t-14.5 31.5t-8.5 32q-1 6 -5.5 29t-11 57.5t-14.5 77t-16 85.5q-19 101 -43 225h-75q-15 0 -25 7.5t-16.5 18t-9 22.5t-2.5 22q0 20 13.5 33t36.5 12h101q20 0 32 -6t19 -15t10 -18.5t5 -16.5q2 -8 4 -22.5t4 -29.5
q3 -18 6 -38h684zM875 505l-626 2l35 -181l523 -1z" />
    <glyph glyph-name="uniE616" unicode="&#xe616;" 
d="M931 149l2 -14v-8v-6v-6l-1 -7l-1 -12l-3 -11l-3 -10l-1 -5l-2 -4l-3 -4l-2 -4l-2 -3l-3 -3l-2 -3l-3 -2l-3 -1l-3 -2l-3 -1h-2h-1l-3 1l-4 2l-2 2l-3 1l-2 3l-2 2l-4 4l-4 6l-4 6l-4 6l-4 6l-5 10l-5 11h-1h-1l-2 -1l-1 -3l-3 -4l-3 -10l-6 -15l-8 -18l-5 -9l-6 -10
l-7 -11l-7 -10l-4 -5l-5 -5l-10 -10l1 -1l1 4l5 -3l22 -11l10 -5l9 -5l9 -7l8 -7l4 -3l3 -4l3 -3l2 -5l2 -4l1 -4l1 -4l1 -4l-1 -3v-3l-1 -3l-1 -3l-1 -2l-2 -4l-3 -5l-4 -4l-3 -3l-2 -3l-6 -4l-7 -4l-8 -3l-7 -4l-9 -3l-5 -2l-4 -1l-10 -2l-10 -3l-11 -2l-11 -1l-12 -1
l-12 -2h-12h-13h-13l-13 1l-13 2l-13 1l-14 1l-14 3l-14 3l-13 3l-14 3l-13 5l-14 4l-6 3l-7 2l-4 1l-4 1h-5h-6l-13 1l-6 1h-8l-6 -4l-7 -5l-10 -5l-11 -6l-7 -3l-7 -3l-15 -6l-9 -2l-9 -2l-12 -3h-7l-9 -1l-8 -1l-9 -1h-10h-10h-21l-22 1l-22 2l-12 2l-10 2l-11 1l-10 2
l-10 3l-9 3l-9 3l-9 3l-7 4l-7 5l-7 4l-2 2l-3 3l-2 2l-3 3l-1 4l-1 3l-3 6l-1 2v4v3v4v4l1 4v2v5l1 4l2 4l1 5l2 5l2 2l2 3l4 5l4 2l2 2l4 3l4 1l4 2l4 2l5 2l6 2l6 1l6 1h7l7 1l2 1l1 1v1l-1 1l-4 2l-10 3l-7 5l-7 7l-8 8l-8 9l-9 11l-4 6l-4 6l-4 7l-4 7l-4 8l-3 8l-4 8
l-4 9l-3 9l-2 11h-1h-1v1h-1l-1 -1h-1l-1 -2l-1 -2l-1 -2l-1 -3l-5 -9l-2 -4l-3 -5l-4 -5l-5 -5l-4 -5l-5 -5l-6 -4l-5 -4l-6 -4l-6 -2l-8 -2l-3 -1h-2l-2 1h-2l-2 2l-1 2l-4 6l-1 3l-1 5l-2 5l-1 6l-1 11l-1 7v7v15l1 16l2 8l1 9l1 9l3 9l3 10l3 10l4 10l3 9l5 10l5 11l6 9
l7 11l7 10l7 10l6 8l8 8l8 9l3 4l5 4l7 6l7 6l11 10l8 6l3 2l-1 5l-2 7l-1 4v4v6v5l2 6l1 6l2 7l4 7l3 8l6 7v5v6l1 6l2 8l3 8l1 4l2 4l3 3l2 3v6v6v7l2 10l1 11l4 14l3 14l3 7l3 9l3 8l4 8l4 9l4 9l5 9l6 9l3 5l4 5l6 10l7 9l8 10l8 10l9 10l10 9l11 11l8 6l9 7l9 6l10 6
l10 6l10 4l11 5l11 4l12 4l12 4l12 3l12 2l13 2l13 1l13 2l13 1h13h13h14l13 -2l14 -1l13 -2l13 -3l14 -3l13 -3l13 -3l13 -5l12 -5l12 -5l13 -6l11 -7l11 -7l10 -7l4 -3l5 -4l9 -7l7 -7l8 -8l7 -8l6 -8l7 -9l5 -9l5 -8l6 -9l4 -8l8 -17l3 -9l3 -9l3 -9l3 -8l2 -7l2 -9
l4 -15l3 -13l1 -13l2 -10l2 -16l1 -2l1 -3l6 -9l3 -5l3 -6l3 -6l3 -7l3 -8l2 -8l1 -8l1 -5l1 -5v-5l-1 -4v-5l-1 -6l-3 -10l-2 -5l-2 -6v-2l1 -1l3 -5l12 -17l9 -14l4 -8l6 -10l5 -10l6 -11l6 -13l7 -14l4 -9l4 -9l3 -9l3 -8l2 -8l2 -8l3 -16z" />
    <glyph glyph-name="uniE617" unicode="&#xe617;" horiz-adv-x="1024" 
d="M832 556h-192v64l-192 192h-448v-768h384v-256h640v576zM832 465l101 -101h-101v101zM448 721l101 -101h-101v101zM64 748h320v-192h192v-448h-512v640zM960 -148h-512v192h192v448h128v-192h192v-448z" />
    <glyph glyph-name="uniE618" unicode="&#xe618;" horiz-adv-x="1024" 
d="M903 613l-142 142q-24 24 -64 40.5t-73 16.5h-480q-33 0 -56.5 -23.5t-23.5 -56.5v-864q0 -33 23.5 -56.5t56.5 -23.5h736q33 0 56.5 23.5t23.5 56.5v608q0 33 -16.5 73t-40.5 64zM858 567q5 -4 9 -11h-163v163q7 -4 11 -9zM896 -132q0 -7 -4.5 -11.5t-11.5 -4.5h-736
q-7 0 -11.5 4.5t-4.5 11.5v864q0 7 4.5 11.5t11.5 4.5h480q7 0 16 -2v-254h254q1 -3 1.5 -5.5t0.5 -5.5v-5v-608z" />
    <glyph glyph-name="uniE619" unicode="&#xe619;" horiz-adv-x="1024" 
d="M502 330zM328 -51l173 231h-113v338h-121v-338h-113zM560 518h310v-69h-310v69zM560 324h247v69h-247v-69zM560 199h185v69h-185v-69zM560 74h122v69h-122v-69zM560 -51h60v69h-60v-69z" />
    <glyph glyph-name="uniE61A" unicode="&#xe61a;" horiz-adv-x="1024" 
d="M951 263q-87 135 -218 202q35 -60 35 -128q0 -107 -75 -181.5t-181 -74.5t-181 74.5t-75 181.5q0 68 35 128q-131 -67 -218 -202q77 -117 191.5 -186.5t247.5 -69.5t247.5 69.5t191.5 186.5zM540 483.5q0 11.5 -8.5 19.5t-19.5 7q-72 0 -123 -51t-51 -122q0 -12 8 -19.5
t19.5 -8.5t19.5 8.5t8 19.5q0 49 35 84t84 35q11 0 19.5 8t8.5 19.5zM1024 263.5q0 -19.5 -11 -39.5q-80 -132 -215 -211t-286 -79t-286 79t-215 211q-11 20 -11 39.5t11 39.5q80 131 215 210t286 80t286 -80t215 -210q11 -20 11 -39.5z" />
    <glyph glyph-name="uniE61B" unicode="&#xe619;" horiz-adv-x="1024" 
d="M219 7q0 -45 -31.5 -77.5t-78 -31.5t-78 31.5t-31.5 77.5t31.5 78t78 32t78 -32t31.5 -78zM219 300q0 -46 -31.5 -78t-78 -32t-78 32t-31.5 78t31.5 78t78 32t78 -32t31.5 -78zM1024 62v-109q0 -7 -5 -13.5t-13 -5.5h-695q-8 0 -13 5.5t-5 13.5v109q0 8 5 13t13 6h695
q7 0 13 -6t5 -13zM219 593q0 -46 -31.5 -78t-78 -32t-78 32t-31.5 78t31.5 77.5t78 31.5t78 -31.5t31.5 -77.5zM1024 355v-110q0 -7 -5 -12.5t-13 -5.5h-695q-8 0 -13 5.5t-5 12.5v110q0 7 5 12.5t13 5.5h695q7 0 13 -5.5t5 -12.5zM1024 647v-109q0 -8 -5 -13t-13 -6h-695
q-8 0 -13 6t-5 13v109q0 8 5 13.5t13 5.5h695q7 0 13 -5.5t5 -13.5z" />
    <glyph glyph-name="uniE61C" unicode="&#xe61c;" horiz-adv-x="1024" 
d="M230 76l-60 -13l-109 -163l21 -20l20 -21l165 108l12 60l136 134l-50 49zM820 690q10 11 20.5 0.5t-0.5 -20.5l-237 -236l37 -37l237 236q11 10 21 0q11 -10 0 -21l-237 -235l33 -33q1 1 2 1l25 25l201 200q30 30 30 72t-30 72t-72.5 30t-72.5 -30l-200 -198l-26 -27
q-1 0 -1 -1h-1l33 -33zM478 499q5 28 3 57q-2 23 -9.5 45.5t-20.5 43t-30 38.5q-46 45 -108.5 56.5t-118.5 -12.5l122 -121q13 -13 13 -32.5t-13 -33.5l-51 -50q-14 -14 -33.5 -14t-33.5 14l-119 118q-21 -54 -8.5 -114t56.5 -103q47 -47 114 -58q15 -2 30.5 -2t29.5 2
l441 -438q14 -14 31.5 -22.5t36 -11t37 0t36 11t31.5 22.5q36 36 36 86q0 24 -9.5 46t-26.5 39zM877 -67q-13 -13 -29 -17t-32.5 0t-28.5 16.5t-16.5 28.5t0 32.5t16.5 28.5q19 18 45 18t44.5 -18.5t18.5 -44.5t-18 -44z" />
    <glyph glyph-name="uniE61D" unicode="&#xe61d;" horiz-adv-x="1024" 
d="M16 796zM863 651q-45 45 -100 77.5t-119 50t-132 17.5q-105 0 -199 -41t-162.5 -114t-103.5 -167l116 -43q41 107 136 174t213 67q76 0 144 -28.5t119 -80.5l-139 -139h372v372zM512 -72q-76 0 -144 28.5t-119 80.5l139 139h-372v-372l145 145q69 -69 159.5 -107
t191.5 -38q105 0 199 41t162.5 114t103.5 167l-116 43q-41 -107 -136 -174t-213 -67z" />
  </font>
</defs>
</svg>
